Talk:Coldboot.raf

From PS3 Developer wiki
Revision as of 02:33, 28 October 2014 by Euss (talk | contribs) (Created page with "== Audio Files == Samplefiles as seen in 2.70-2.80: === coldboot_multi.ac3 === Complete name : \dev_flash\vsh\resource\coldboot_multi.ac3 Format ...")
(diff) ← Older revision | Latest revision (diff) | Newer revision → (diff)
Jump to: navigation, search

Audio Files

Samplefiles as seen in 2.70-2.80:

coldboot_multi.ac3

Complete name                    : \dev_flash\vsh\resource\coldboot_multi.ac3
Format                           : AC-3
Format/Info                      : Audio Coding 3
File size                        : 705 KiB
Duration                         : 9s 24ms
Overall bit rate                 : 640 Kbps
Format                           : AC-3
Format/Info                      : Audio Coding 3
Mode extension                   : CM (complete main)
Duration                         : 9s 24ms
Bit rate mode                    : Constant
Bit rate                         : 640 Kbps
Channel(s)                       : 6 channels
Channel positions                : Front: L C R, Side: L R, LFE
Sampling rate                    : 48.0 KHz
Bit depth                        : 16 bits
Stream size                      : 705 KiB (100%)

coldboot_stereo.ac3

Complete name                    : \dev_flash\vsh\resource\coldboot_stereo.ac3
Format                           : AC-3
Format/Info                      : Audio Coding 3
File size                        : 705 KiB
Duration                         : 9s 24ms
Overall bit rate                 : 640 Kbps
Format                           : AC-3
Format/Info                      : Audio Coding 3
Mode extension                   : CM (complete main)
Duration                         : 9s 24ms
Bit rate mode                    : Constant
Bit rate                         : 640 Kbps
Channel(s)                       : 2 channels
Channel positions                : Front: L R
Sampling rate                    : 48.0 KHz
Bit depth                        : 16 bits
Stream size                      : 705 KiB (100%)

coldboot2_multi.ac3

Complete name                    : \dev_flash\vsh\resource\coldboot2_multi.ac3
Format                           : AC-3
Format/Info                      : Audio Coding 3
File size                        : 783 KiB
Duration                         : 10s 16ms
Overall bit rate                 : 640 Kbps
Format                           : AC-3
Format/Info                      : Audio Coding 3
Mode extension                   : CM (complete main)
Duration                         : 10s 16ms
Bit rate mode                    : Constant
Bit rate                         : 640 Kbps
Channel(s)                       : 6 channels
Channel positions                : Front: L C R, Side: L R, LFE
Sampling rate                    : 48.0 KHz
Bit depth                        : 16 bits
Stream size                      : 783 KiB (100%)

coldboot2_stereo.ac3

Complete name                    : \dev_flash\vsh\resource\coldboot2_stereo.ac3
Format                           : AC-3
Format/Info                      : Audio Coding 3
File size                        : 783 KiB
Duration                         : 10s 16ms
Overall bit rate                 : 640 Kbps
Format                           : AC-3
Format/Info                      : Audio Coding 3
Mode extension                   : ME (music and effects)
Duration                         : 10s 16ms
Bit rate mode                    : Constant
Bit rate                         : 640 Kbps
Channel(s)                       : 2 channels
Channel positions                : Front: L R
Sampling rate                    : 48.0 KHz
Bit depth                        : 16 bits
Stream size                      : 783 KiB (100%)